<svg xmlns="http://www.w3.org/2000/svg">
<defs>
<font
   id="EmbeddedFont_1"
   horiz-adv-x="2048"
   horiz-origin-x="0"
   horiz-origin-y="0"
   vert-origin-x="45"
   vert-origin-y="90"
   vert-adv-y="90">
   <font-face
   font-family="Arial embedded"
   units-per-em="2048"
   font-weight="normal"
   font-style="normal"
   ascent="1852"
   descent="450"
   id="font-face2" />
   <missing-glyph
   horiz-adv-x="2048"
   d="M 0,0 L 2047,0 2047,2047 0,2047 0,0 Z"
   id="missing-glyph4" />
   <glyph
   unicode="s"
   horiz-adv-x="874"
   d="M 63,317 L 241,345 C 251,274 279,219 325,181 370,143 434,124 516,124 599,124 660,141 700,175 740,208 760,248 760,293 760,334 742,366 707,389 682,405 621,425 523,450 391,483 300,512 249,537 198,561 159,595 133,638 106,681 93,728 93,780 93,827 104,871 126,912 147,952 177,985 214,1012 242,1033 280,1050 329,1065 377,1079 429,1086 484,1086 567,1086 641,1074 704,1050 767,1026 813,994 843,953 873,912 894,857 905,788 L 729,764 C 721,819 698,861 660,892 621,923 567,938 497,938 414,938 355,924 320,897 285,870 267,838 267,801 267,778 274,757 289,738 304,719 327,703 358,690 376,683 429,668 517,644 644,610 733,582 784,561 834,539 873,507 902,466 931,425 945,373 945,312 945,252 928,196 893,143 858,90 807,49 741,20 675,-9 600,-24 517,-24 379,-24 274,5 202,62 129,119 83,204 63,317 Z"
   id="glyph6" />
   <glyph
   unicode="g"
   horiz-adv-x="927"
   d="M 102,-88 L 277,-114 C 284,-168 305,-207 338,-232 383,-265 444,-282 521,-282 604,-282 669,-265 714,-232 759,-199 790,-152 806,-92 815,-55 820,22 819,139 740,46 642,0 525,0 379,0 266,53 186,158 106,263 66,390 66,537 66,638 84,732 121,818 158,903 211,969 281,1016 350,1063 432,1086 526,1086 651,1086 755,1035 836,934 L 836,1062 1002,1062 1002,144 C 1002,-21 985,-138 952,-207 918,-276 865,-331 792,-371 719,-411 629,-431 522,-431 395,-431 293,-402 215,-345 137,-288 99,-203 102,-88 Z M 251,550 C 251,411 279,309 334,245 389,181 459,149 542,149 625,149 694,181 750,245 806,308 834,408 834,544 834,674 805,772 748,838 690,904 620,937 539,937 459,937 391,905 335,840 279,775 251,678 251,550 Z"
   id="glyph8" />
   <glyph
   unicode="e"
   horiz-adv-x="980"
   d="M 862,342 L 1048,319 C 1019,210 964,126 885,66 806,6 704,-24 581,-24 426,-24 303,24 212,120 121,215 75,349 75,522 75,701 121,839 213,938 305,1037 424,1086 571,1086 713,1086 829,1038 919,941 1009,844 1054,708 1054,533 1054,522 1054,506 1053,485 L 261,485 C 268,368 301,279 360,217 419,155 493,124 582,124 648,124 704,141 751,176 798,211 835,266 862,342 Z M 271,633 L 864,633 C 856,722 833,789 796,834 739,903 664,938 573,938 490,938 421,910 365,855 308,800 277,726 271,633 Z"
   id="glyph10" />
   <glyph
   unicode="d"
   horiz-adv-x="927"
   d="M 824,0 L 824,134 C 757,29 658,-24 527,-24 442,-24 365,-1 294,46 223,93 168,158 129,242 90,325 70,421 70,530 70,636 88,732 123,819 158,905 211,971 282,1017 353,1063 432,1086 519,1086 583,1086 640,1073 690,1046 740,1019 781,983 812,940 L 812,1466 991,1466 991,0 824,0 Z M 255,530 C 255,394 284,292 341,225 398,158 466,124 544,124 623,124 690,156 745,221 800,285 827,383 827,515 827,660 799,767 743,835 687,903 618,937 536,937 456,937 389,904 336,839 282,774 255,671 255,530 Z"
   id="glyph12" />
   <glyph
   unicode="]"
   horiz-adv-x="398"
   d="M 436,-407 L 39,-407 39,-258 256,-258 256,1317 39,1317 39,1466 436,1466 436,-407 Z"
   id="glyph14" />
   <glyph
   unicode="["
   horiz-adv-x="398"
   d="M 139,-407 L 139,1466 536,1466 536,1317 319,1317 319,-258 536,-258 536,-407 139,-407 Z"
   id="glyph16" />
   <glyph
   unicode=" "
   horiz-adv-x="556"
   id="glyph18" />
  </font>
 
  
  
  
  
  
  
  
  
 </defs>
 <defs
   id="defs32">
  <font
   id="EmbeddedFont_2"
   horiz-adv-x="2048"
   horiz-origin-x="0"
   horiz-origin-y="0"
   vert-origin-x="45"
   vert-origin-y="90"
   vert-adv-y="90">
   <font-face
   font-family="Arial embedded"
   units-per-em="2048"
   font-weight="normal"
   font-style="italic"
   ascent="1852"
   descent="450"
   id="font-face23" />
   <missing-glyph
   horiz-adv-x="2048"
   d="M 0,0 L 2047,0 2047,2047 0,2047 0,0 Z"
   id="missing-glyph25" />
   <glyph
   unicode="θ"
   horiz-adv-x="1007"
   d="M 130,488 C 130,723 187,950 301,1167 415,1384 565,1492 750,1491 865,1494 960,1455 1033,1373 1106,1290 1143,1165 1143,996 1143,745 1086,513 973,298 859,83 710,-24 525,-24 408,-24 313,21 240,112 167,203 130,328 130,488 Z M 358,800 L 946,800 C 963,902 972,984 972,1047 972,1137 951,1209 909,1263 867,1316 811,1343 742,1343 571,1343 443,1162 358,800 Z M 917,650 L 327,650 C 314,560 308,491 308,442 308,346 328,269 369,211 410,153 465,124 536,124 617,124 692,171 760,265 827,359 880,487 917,650 Z"
   id="glyph27" />
   <glyph
   unicode="t"
   horiz-adv-x="530"
   d="M 491,147 L 461,-1 C 418,-12 376,-18 335,-18 263,-18 206,0 163,35 131,62 115,98 115,144 115,167 124,221 141,305 L 270,922 127,922 156,1062 299,1062 354,1323 561,1448 480,1062 658,1062 628,922 451,922 328,335 C 313,260 305,216 305,201 305,180 311,163 324,152 336,141 356,135 384,135 424,135 460,139 491,147 Z"
   id="glyph29" />
  </font>
 </defs>
 <defs
   id="defs79">
  <font
   id="EmbeddedFont_3"
   horiz-adv-x="2048"
   horiz-origin-x="0"
   horiz-origin-y="0"
   vert-origin-x="45"
   vert-origin-y="90"
   vert-adv-y="90">
   <font-face
   font-family="メイリオ embedded"
   units-per-em="2048"
   font-weight="normal"
   font-style="normal"
   ascent="2170"
   descent="900"
   id="font-face34" />
   <missing-glyph
   horiz-adv-x="2048"
   d="M 0,0 L 2047,0 2047,2047 0,2047 0,0 Z"
   id="missing-glyph36" />
   <glyph
   unicode="）"
   horiz-adv-x="530"
   d="M 659,788 C 659,445 543,135 311,-144 L 115,-144 115,-136 C 224,-35 313,89 382,235 463,409 504,593 504,788 504,981 463,1165 382,1338 313,1484 224,1608 115,1709 L 115,1720 311,1720 C 543,1439 659,1129 659,788 Z"
   id="glyph38" />
   <glyph
   unicode="（"
   horiz-adv-x="557"
   d="M 1921,-145 L 1724,-145 C 1492,134 1376,444 1376,787 1376,1127 1492,1437 1724,1718 L 1921,1718 1921,1708 C 1812,1607 1723,1483 1654,1337 1573,1164 1532,980 1532,787 1532,592 1573,408 1654,234 1723,88 1812,-36 1921,-137 L 1921,-145 Z"
   id="glyph40" />
   <glyph
   unicode="際"
   horiz-adv-x="1853"
   d="M 946,987 C 886,1038 824,1089 759,1139 746,1122 731,1105 716,1087 L 632,1148 C 771,1331 870,1518 929,1707 L 1065,1687 C 1056,1657 1045,1626 1031,1593 L 1432,1593 C 1477,1460 1555,1314 1664,1157 1735,1272 1783,1386 1810,1499 L 1520,1499 1520,1603 1946,1603 1982,1561 C 1917,1358 1838,1187 1744,1050 1813,965 1904,877 2017,786 L 1925,686 C 1806,785 1695,903 1592,1042 1489,1181 1409,1320 1354,1459 1274,1166 1084,909 785,690 L 712,770 C 800,835 878,908 946,987 Z M 1151,1293 C 1188,1366 1215,1432 1232,1492 L 985,1492 C 974,1469 959,1443 942,1412 1031,1363 1100,1324 1151,1293 Z M 815,1213 C 862,1180 927,1131 1011,1067 1056,1132 1087,1177 1102,1204 1052,1238 983,1281 894,1332 865,1286 839,1246 815,1213 Z M 511,1047 C 530,1020 558,975 593,912 628,849 651,792 662,742 673,692 678,645 678,602 678,544 673,492 662,447 651,401 634,363 613,333 592,302 566,280 537,265 508,250 482,242 460,240 437,238 397,237 340,237 L 317,366 434,371 C 503,383 538,459 538,598 538,744 487,883 384,1016 L 379,1049 C 403,1110 432,1197 467,1310 502,1423 519,1492 519,1517 L 281,1517 281,-133 143,-133 143,1628 664,1628 695,1588 C 678,1521 649,1423 606,1295 563,1166 532,1084 511,1047 Z M 1090,828 L 1090,943 1635,943 1635,828 1090,828 Z M 1200,11 C 1243,11 1265,30 1265,68 L 1265,490 778,490 778,609 1934,609 1934,490 1418,490 1418,13 C 1418,-79 1363,-125 1253,-125 L 1050,-125 1035,11 1200,11 Z M 1909,-60 C 1853,-21 1787,39 1711,121 1635,203 1578,274 1541,335 L 1666,394 C 1698,344 1750,282 1823,209 1895,135 1959,77 2015,36 L 1909,-60 Z M 680,-60 L 588,34 C 743,143 868,262 962,391 L 1096,327 C 1054,267 988,196 898,113 807,30 735,-28 680,-60 Z"
   id="glyph42" />
   <glyph
   unicode="重"
   horiz-adv-x="1879"
   d="M 70,-87 L 70,32 932,32 932,193 189,193 189,316 932,316 932,462 270,462 270,1106 932,1106 932,1244 90,1244 90,1358 932,1358 932,1501 C 667,1488 452,1481 287,1480 L 268,1592 C 475,1592 719,1600 1000,1617 1281,1633 1500,1653 1657,1678 L 1720,1563 C 1609,1545 1398,1527 1085,1509 L 1085,1358 1939,1358 1939,1244 1085,1244 1085,1106 1776,1106 1776,462 1085,462 1085,316 1851,316 1851,193 1085,193 1085,32 1956,32 1956,-87 70,-87 Z M 1624,999 L 1085,999 1085,838 1624,838 1624,999 Z M 932,999 L 418,999 418,838 932,838 932,999 Z M 1624,738 L 1085,738 1085,571 1624,571 1624,738 Z M 932,738 L 418,738 418,571 932,571 932,738 Z"
   id="glyph44" />
   <glyph
   unicode="次"
   horiz-adv-x="1906"
   d="M 919,1283 C 844,1107 755,956 652,830 L 537,899 C 704,1133 824,1402 897,1705 L 1060,1680 C 1043,1613 1013,1523 969,1409 L 1910,1409 1941,1377 C 1920,1292 1886,1187 1838,1064 1789,941 1749,852 1718,799 L 1578,834 C 1661,1001 1716,1151 1741,1283 L 919,1283 Z M 408,1125 C 317,1249 216,1369 107,1484 L 234,1572 C 344,1462 444,1344 535,1219 L 408,1125 Z M 1202,660 C 1157,471 1069,308 937,173 804,38 666,-60 523,-120 L 445,-18 C 569,48 674,121 759,200 844,279 913,368 967,468 1021,568 1058,666 1077,761 1096,856 1106,962 1106,1080 L 1106,1183 1264,1183 1265,1082 C 1266,1022 1264,975 1260,942 1283,767 1359,591 1488,416 1616,241 1779,101 1977,-3 L 1874,-127 C 1719,-41 1578,75 1451,222 1323,369 1240,515 1202,660 Z M 211,20 L 65,101 C 112,166 170,272 239,419 308,565 357,685 387,778 L 529,730 C 501,635 453,510 384,355 315,200 257,89 211,20 Z"
   id="glyph46" />
   <glyph
   unicode="有"
   horiz-adv-x="1906"
   d="M 1616,331 L 655,331 655,-127 498,-127 498,913 C 377,752 251,622 120,523 L 28,617 C 129,702 227,801 320,914 413,1027 505,1171 594,1346 L 97,1346 97,1467 651,1467 C 687,1550 714,1628 732,1703 L 897,1684 C 878,1613 852,1541 819,1467 L 1963,1467 1963,1346 762,1346 C 723,1266 681,1190 637,1118 L 1775,1118 1775,53 C 1775,12 1756,-24 1718,-55 1680,-86 1638,-102 1591,-102 L 1284,-102 1265,43 1530,43 C 1587,43 1616,68 1616,118 L 1616,331 Z M 1616,782 L 1616,999 655,999 655,782 1616,782 Z M 655,446 L 1616,446 1616,671 655,671 655,446 Z"
   id="glyph48" />
   <glyph
   unicode="振"
   horiz-adv-x="1959"
   d="M 57,548 L 32,678 C 90,690 183,717 312,760 L 312,1181 88,1181 88,1298 312,1298 312,1689 460,1689 460,1298 631,1298 631,1181 460,1181 460,811 C 540,840 598,862 634,878 L 654,772 C 614,749 549,720 460,685 L 460,20 C 460,-20 444,-52 411,-75 378,-98 340,-110 295,-110 L 103,-110 86,18 241,18 C 288,18 312,39 312,82 L 312,630 C 199,590 114,563 57,548 Z M 874,-112 L 847,15 C 888,19 954,27 1047,40 L 1047,784 870,784 C 859,418 788,123 659,-101 L 548,-35 C 603,64 647,191 680,348 713,505 730,669 730,841 L 730,1614 1916,1614 1916,1494 872,1494 872,901 1906,901 1906,784 1527,784 C 1546,665 1578,553 1623,450 1711,515 1783,576 1839,632 L 1935,542 C 1876,491 1790,425 1676,346 1759,204 1867,82 1998,-20 L 1893,-122 C 1750,-14 1636,121 1550,282 1464,443 1411,611 1392,784 L 1193,784 1193,60 C 1366,84 1484,103 1546,118 L 1557,3 C 1508,-11 1405,-31 1249,-57 1092,-83 967,-101 874,-112 Z M 999,1148 L 999,1267 1847,1267 1847,1148 999,1148 Z"
   id="glyph50" />
   <glyph
   unicode="実"
   horiz-adv-x="1853"
   d="M 1766,1215 L 1766,1432 270,1432 270,1215 128,1215 128,1547 922,1547 922,1710 1083,1710 1083,1547 1914,1547 1914,1215 1766,1215 Z M 922,556 L 922,757 260,757 260,876 922,876 922,1068 293,1068 293,1192 922,1192 922,1323 1087,1323 1087,1192 1745,1192 1745,1068 1087,1068 1087,876 1784,876 1784,757 1087,757 1087,556 1943,556 1943,433 1152,433 C 1321,229 1587,86 1950,5 L 1881,-131 C 1709,-100 1543,-38 1384,56 1225,150 1104,255 1021,372 944,247 828,139 672,48 516,-43 338,-105 138,-139 L 88,-18 C 313,27 492,95 624,187 755,279 841,361 880,433 L 109,433 109,556 922,556 Z"
   id="glyph52" />
   <glyph
   unicode="固"
   horiz-adv-x="1721"
   d="M 1736,-34 L 301,-34 301,-115 155,-115 155,1633 1885,1633 1885,-115 1736,-115 1736,-34 Z M 301,85 L 1736,85 1736,1518 301,1518 301,85 Z M 535,269 L 535,835 928,835 928,1098 433,1098 433,1213 928,1213 928,1433 1083,1433 1083,1213 1607,1213 1607,1098 1083,1098 1083,835 1494,835 1494,269 535,269 Z M 681,382 L 1348,382 1348,724 681,724 681,382 Z"
   id="glyph54" />
   <glyph
   unicode="合"
   horiz-adv-x="2012"
   d="M 1951,878 C 1809,937 1648,1033 1469,1167 1289,1301 1139,1440 1020,1584 927,1456 793,1324 618,1188 443,1051 265,944 86,866 L 19,976 C 192,1059 363,1168 530,1301 697,1434 821,1562 903,1684 L 1124,1684 C 1229,1547 1371,1415 1548,1286 1725,1157 1886,1063 2033,1006 L 1951,878 Z M 1548,943 L 506,943 506,1064 1548,1064 1548,943 Z M 1580,-10 L 452,-10 452,-110 295,-110 295,669 1738,669 1738,-104 1580,-104 1580,-10 Z M 452,111 L 1580,111 1580,548 452,548 452,111 Z"
   id="glyph56" />
   <glyph
   unicode="動"
   horiz-adv-x="1801"
   d="M 1415,-97 L 1399,39 1557,39 C 1608,39 1646,51 1670,74 1694,97 1713,158 1726,256 1739,353 1745,515 1745,740 L 1743,1133 1532,1133 C 1527,849 1486,600 1409,386 1331,171 1222,1 1081,-124 L 983,-43 C 1095,58 1188,209 1263,412 1338,614 1376,854 1378,1133 L 1188,1133 1188,1254 1378,1254 1378,1685 1532,1685 1532,1254 1900,1254 1900,1177 1900,703 C 1897,549 1891,413 1882,296 1872,179 1860,97 1847,52 1840,28 1829,6 1814,-13 1799,-32 1780,-49 1758,-62 1736,-76 1712,-86 1686,-91 1669,-94 1578,-96 1415,-97 Z M 108,-99 L 78,26 C 163,31 320,46 548,71 L 548,243 118,243 118,358 548,358 548,509 172,509 172,1121 548,1121 548,1254 116,1254 116,1367 548,1367 548,1501 C 406,1490 291,1484 202,1484 L 185,1484 168,1593 C 493,1601 764,1628 983,1674 L 1035,1561 C 961,1546 849,1530 699,1515 L 699,1367 1115,1367 1115,1254 699,1254 699,1121 1079,1121 1079,509 699,509 699,358 1106,358 1106,243 699,243 699,88 C 874,107 987,121 1039,130 L 1039,18 C 932,-13 621,-52 108,-99 Z M 941,1014 L 695,1014 695,864 941,864 941,1014 Z M 553,1014 L 308,1014 308,864 553,864 553,1014 Z M 941,765 L 695,765 695,615 941,615 941,765 Z M 553,765 L 308,765 308,615 553,615 553,765 Z"
   id="glyph58" />
   <glyph
   unicode="ー"
   horiz-adv-x="1642"
   d="M 1842,662 L 188,662 188,810 1842,810 1842,662 Z"
   id="glyph60" />
   <glyph
   unicode="モ"
   horiz-adv-x="1800"
   d="M 1931,721 L 893,721 893,330 C 893,243 911,187 948,162 984,136 1041,123 1120,123 L 1827,123 1827,-25 1112,-25 C 1044,-25 985,-18 936,-4 886,9 845,30 813,57 781,84 758,118 745,158 732,197 725,260 725,346 L 725,721 123,721 123,860 733,860 733,1362 190,1362 190,1499 1796,1499 1796,1362 899,1362 899,860 1931,860 1931,721 Z"
   id="glyph62" />
   <glyph
   unicode="ド"
   horiz-adv-x="1298"
   d="M 1903,622 L 1798,483 C 1659,576 1494,667 1301,756 1108,845 937,913 786,958 L 786,-103 608,-103 608,1648 788,1648 788,1112 C 1183,993 1555,830 1903,622 Z M 1810,1319 L 1696,1272 C 1653,1373 1605,1465 1552,1548 L 1657,1597 C 1710,1516 1761,1423 1810,1319 Z M 1520,1257 L 1405,1206 C 1356,1317 1308,1410 1260,1487 L 1368,1536 C 1427,1445 1477,1352 1520,1257 Z"
   id="glyph64" />
   <glyph
   unicode="わ"
   horiz-adv-x="1879"
   d="M 498,651 C 424,540 310,377 156,160 L 51,262 C 129,356 212,470 300,605 388,740 454,855 498,951 L 498,1182 129,1182 129,1313 498,1313 498,1638 647,1638 647,1056 C 754,1158 870,1239 995,1299 1120,1359 1240,1389 1356,1389 1530,1388 1674,1328 1788,1207 1902,1086 1959,936 1959,757 1958,532 1890,348 1754,206 1617,63 1386,-22 1059,-51 L 1026,84 C 1540,118 1797,341 1797,753 1797,885 1756,1002 1675,1103 1593,1204 1491,1255 1369,1256 1246,1256 1121,1221 992,1152 863,1083 748,991 647,877 L 648,-74 498,-74 498,651 Z"
   id="glyph66" />
   <glyph
   unicode="の"
   horiz-adv-x="1853"
   d="M 1068,-41 L 1029,94 C 1244,113 1427,176 1580,281 1732,386 1808,544 1808,753 1808,940 1747,1084 1624,1186 1501,1288 1329,1342 1109,1348 1102,989 1037,690 916,450 795,210 643,90 460,90 347,90 258,138 193,235 128,331 95,448 95,587 95,816 194,1021 391,1204 588,1386 822,1477 1092,1477 1346,1477 1555,1414 1720,1287 1885,1160 1967,986 1967,766 1967,515 1884,324 1718,191 1552,58 1335,-19 1068,-41 Z M 952,1335 C 759,1306 592,1218 453,1073 314,927 244,762 244,579 244,482 264,399 305,332 346,264 402,230 475,230 600,230 708,347 801,580 894,813 944,1064 952,1335 Z"
   id="glyph68" />
   <glyph
   unicode="ね"
   horiz-adv-x="1986"
   d="M 479,654 C 405,543 290,378 135,160 L 31,262 C 84,322 138,391 194,468 249,545 300,622 347,697 393,772 425,827 442,862 459,897 470,926 475,949 480,971 482,1002 482,1043 482,1078 481,1124 479,1182 L 117,1182 117,1313 479,1313 479,1638 631,1638 631,1042 C 742,1162 865,1257 1000,1327 1134,1397 1265,1432 1393,1432 1538,1431 1647,1370 1722,1248 1797,1125 1834,955 1834,737 1834,585 1821,455 1794,346 1868,294 1947,228 2032,148 L 1938,31 C 1882,84 1817,140 1743,200 1659,21 1510,-68 1297,-68 1206,-68 1126,-40 1055,15 984,70 948,138 948,219 948,310 983,383 1054,437 1124,490 1212,517 1319,517 1427,517 1538,489 1651,432 1664,513 1671,602 1671,700 1671,1099 1578,1299 1393,1299 1276,1299 1148,1257 1008,1172 868,1087 742,981 631,854 L 631,-74 479,-74 479,654 Z M 1612,289 C 1514,355 1419,388 1327,388 1258,388 1201,374 1156,346 1111,317 1088,277 1088,225 1087,175 1108,136 1151,107 1193,78 1245,63 1306,63 1451,63 1553,138 1612,289 Z"
   id="glyph70" />
   <glyph
   unicode="せ"
   horiz-adv-x="1826"
   d="M 1737,-49 C 1573,-56 1410,-59 1247,-59 1008,-59 839,-51 742,-35 644,-20 568,18 514,77 459,136 432,226 432,348 L 432,1002 121,1002 121,1133 432,1133 432,1552 590,1552 590,1133 1489,1133 C 1489,1302 1483,1446 1471,1565 L 1626,1577 C 1639,1455 1645,1318 1645,1167 L 1645,1133 1968,1133 1968,1002 1643,1002 C 1640,897 1633,791 1624,682 1614,573 1590,500 1551,464 1512,427 1459,409 1393,409 1293,409 1164,466 1006,580 L 1065,696 C 1199,606 1302,561 1374,561 1421,561 1450,589 1463,646 1476,702 1484,821 1488,1002 L 590,1002 590,350 C 590,267 609,207 647,170 684,132 745,108 830,98 915,87 1073,82 1306,82 1477,82 1621,87 1737,98 L 1737,-49 Z"
   id="glyph72" />
   <glyph
   unicode="2"
   horiz-adv-x="1007"
   d="M 1154,0 L 146,0 146,195 C 253,287 373,394 506,516 639,638 737,745 802,838 867,931 899,1023 899,1116 899,1198 872,1262 818,1308 763,1354 689,1377 596,1377 459,1377 325,1334 193,1247 L 183,1247 183,1442 C 318,1506 457,1538 601,1538 753,1538 873,1501 960,1428 1047,1354 1091,1253 1091,1126 1091,1058 1080,993 1058,931 1035,869 1000,809 953,750 906,691 849,629 783,563 717,497 565,363 328,161 L 1154,161 1154,0 Z"
   id="glyph74" />
   <glyph
   unicode="1"
   horiz-adv-x="794"
   d="M 1068,0 L 266,0 266,138 580,138 580,1174 266,1174 266,1296 C 389,1297 476,1314 529,1349 582,1383 611,1437 618,1512 L 760,1512 760,138 1068,138 1068,0 Z"
   id="glyph76" />
  </font>
</defs>
</svg>
